19. Jul, 2017

Big Wet Butts Lisa Ann Wet Dream Mp4-adds

big wet butts lisa ann wet dream mp4-adds

 

Big Wet Butts Lisa Ann Wet Dream Mp4-adds -- http://tinyurl.com/ycnmloxp

 

 

 

 

 

 

 

 

 

 

 

 

 

 

 

 

 

 

 

 

 

 

 

 

 

 

 

 

 

 

 

 

 

 

 

 

 

 

 

 

 

 

 

 

 

 

 

 

 

Big Wet Butts Lisa Ann Wet Dream Mp4-adds

 

BigWetButts Lisa Ann Wet Dream (Size: 292.85 MB) rarbg.com.txt 33 bytes bwb.lisa.ann.480p.mp4 292.61 MB Poster.jpg 50.07 KB screens.jpg 191.72 KB Description Poster: Screens: Related Torrents torrent name size files age seed leech BigWetButts - Nikki Benz - Big Booty Dream Jeans ** NEW (BRAZZERS / February 01, 2016) NEW ** Posted by newpornup in XXX > Video 373.51 MB 1 4months 6 3 BigWetButts 16 02 01 Nikki Benz Big Booty Dream Jeans XXX 1080p MP4-KTR[rarbg] Posted by arogyame in XXX > HD Video 3.71 GB 3 4months 5 3 [BigWetButts] Lisa Ann - Wet Dream [XXX] Posted by superboiko in XXX > Video 293.14 MB 3 1month 5 0 BigWetButts - Nikki Benz (Big Booty Dream Jeans) NEW 01 February 2016 Posted by Silmarillion in XXX > Video 373.51 MB 2 4months 2 4 BigWetButts - Nikki Benz (Big Booty Dream Jeans / BraZZers) 1080p NEW February 01, 2016 Posted by eyoslut in XXX > HD Video 3.86 GB 1 4months 1 5 Sharing Widget Download torrent 292.85 MB seeders:24 leechers:12 BigWetButts Lisa Ann Wet Dream html bbcode To share this torrent use the code below and insert it into comments, status messages, forum posts or your signature2257 Do you like data18? Share us! Follow us: RSS Feeds - Twitter data18 We support the use of filtering software which prevents minors from accessing inappropriate material: CyberPatrol Panda Net Nanny Please vote if you like this movie: Categories: Ass Added: 18 Nov 12 Tags: ann , ass , lisa , oil , oiled-up Backroom Casting Couch - Alyssa 2017-05-23 03:09:08 Brunette, Backroom Casting Couch #1 #1Big Wet Butts # 11 DVD Brazzers 2 Customer Reviews Our Price:$16.75 DVD For Sale Order within the next 10 hours and 47 minutes to have this item ship today.Add to WishList Big Wet Butts # 11 movie Product Information CategoryAnal Movies, Big Butts, Brazzers' Big Wet Butts Series StarringLisa AnnBridgette BSarah VandellaNikki DelanoSierra SandersKelly Devine Big Wet Butts # 11 adult DVD Related Items Big Wet Butts # 11 buy Product Description Big Wet Butts # 11 Starring Lisa Ann & Bridgette B! All Anal!Bonus Scene With Sierra Sanders!'B For Big Butt' - Bridgette has a fantastic big butt and awesome big tits

 

Little Red Hood Riding XXX Parody 2017-07-18 03:13:00 Brunette, Reality Kings, Angela White, R K Prime, Parody, Little, Xxx Angela White #4 #4The Whore of Wall Street Ep-3: Bitch, You Work For Me! 2014-08-24 15:37:37 High heels, Blonde, Brunette, Parody, Blowjob, Hardcore, Hard, Oral, Threesome, Dani Daniels, Capri Cavanni, Funny, Big Tits, Natural Tits, Me, Whore, Work, Tattoo Capri Cavanni &friends #2 #22257 information * Membership option: Big Wet Butts and related sites are not operated by data18 For more information about 18 U.S.C.Section 2257 Compliance Statement please visit: Big Wet Butts The physical CD will still be shipped to youMiss Titness America 2014-08-24 15:35:50 Big Ass, Big Tits, Brunette, Ebony, Milf, Muscle, Brandi Love, Diamond Jackson, Jewels Jade, Kendra Lust, Me, Erica Brandi Love &friends #7 #7data18 encrypts confidential information with the Secure Sockets Layer (SSL) .

 

I Have A Wife - Harley Jade 2017-07-13 12:13:58 Blonde, Naughty America, Harley Jade, I Have a Wife, Natural Tits, Teen, Har, Harley, Jade, Wife Harley Jade #10 #10Gym And Pussy Juice 2017-07-16 03:16:42 Brunette, Latina, Reality Kings, Rachel Starr, Sneaky Sex, Big Tits, Milf, Tattoo, Gym, Pussy Rachel Starr #9 #9Backroom Casting Couch - Gigi 2017-07-04 03:03:03 Brunette, Backroom Casting Couch #4 #4Good Girls Gone Bad 2014-09-20 22:30:05 Natural Tits, Teen, Lesbian, Tattoo, Aurielee Summers, Malena Morgan, Girl, Girls, Go Aurielee Summers &friends #3 #3We take no responsibility for the content on any website which we link to.screenshots Images are auto generated please report any inapropriate images .Backroom Casting Couch - Gigi 2017-07-04 03:03:03 Brunette, Backroom Casting Couch #6 #6Photo Set Total: 15 images - Click any picture to go to viewer version:Select Jules Jordan AVN Nominated $19.99 :Huge Selection Of Classic Titles Only $14.99! :Extended & Expanded! 16 Hour Wicked Comp Sale with new Titles Added! Shop Now! :Select Girlsway Productions Now On Sale Only $15.99! CategoriesMore > :16 Hour :Amateur :Anal :Asian :BBW :Big Dicks :Big Tits :Black :Blowjob :Blu-ray :Bondage :Cartoon :Celebrity Sex Tape :Classic :Compilation :Couples :Creampie :Cuckold :Double Penetration :Family Roleplay :Feature :Gay :Gang Bang :Hairy :High Definition :Interracial :Japanese :Lesbian :Massage :MILF :Parody / Spoof :Plot Based :POV :Shemale :Squirting :Teen (18+) :Threesomes :All Categories :Bargain Bin :Exclusive Interviews :Top Movie Charts :Top Adult Stars StudiosMore > :Bang Bros :Blacked.com :Brazzers :Digital Playground :Digital Sin :Elegant Angel :Evil Angel :Forbidden Fruits :Girlfriends Films :Jules Jordan :Naughty America :New Sensations :Reality Kings :Tushy :Wicked Adult ToysMore > :Lubricants :Cock Rings :Bondage Gear :Lotions & Creams :Flavored Lubricants :Massage :Condoms :Games :Love Kits Sample info: Duration: 00:34:29.44, start: 0.000000, bitrate: 1186 kb/s Stream #0.0 : Video: h264, yuv420p, 854x480 [PAR 1:1 DAR 427:240], 995 kb/s, 29.97 fps, 29.97 tbr, 30k tbn, 59.94 tbc Stream #0.1 : Audio: aac, 48000 Hz, stereo, s16, 128 kb/s Stream #0.2 : Data: rtp / 0x20707472, 46 kb/s creationtime : 2012-10-30 21:07:57 Stream #0.3 : Data: rtp / 0x20707472, 9 kb/s creationtime : 2012-10-30 21:08:21

 

My Roommates Hot Girlfriend 2017-06-29 16:10:39 Brazzers, Brunette, Amia Miley, Dirty Masseur, Big Tits, Teen, Friend, Girl, Girlfriend, Hot, Hot girl, Hot girlfriend, My, Tattoo Amia Miley #10 #10BigWetButts Lisa Ann Wet DreamHomeDownloads[Brazzers] - Lisa Ann - Collection[Brazzers] - Big Wet Butts - Lisa Ann - Wet Dream - November 2, 2012.mp4 Backroom Casting Couch - Megan 2017-07-18 03:15:01 Blonde, Backroom Casting Couch, Me #4 #4Big Wet Butts # 11 buy Ass lovers enjoy!'Creampie On A Divine Ass' - Kelly teases her delicious buttEVER c3545f6b32

neodownloader 2.9.2 registration code free
JW Player 5.9.rar
emek_xosbextliyin_acaridir_insa_|_added_by_request-adds
Optisystem 9 0 Serial
French kiss comix 09.pdf
youtube hd batch downloader
electrical engineering fundamentals vincent del toro solutions manual.rar
Intelliscore Ensemble Wav To Midi Converter 8 0 Incl Crack Zip
Leadbelly King of the 12 String Guitar.rar checked
tradicionalne_djecije_pjesme-adds